纪录片部落-专业纪录片从业者门户,纪录片策划、创作,纪录片拍摄,纪录片策划,纪录片制作知识,下载纪录片,BBC纪录片,纪录片大全

纪录片部落-纪录片从业者门户

 找回密码
 立即注册
查看: 429|回复: 18

[内嵌字幕] CCTV-巡视利剑(全4集)/720P高清

[复制链接]

179

主题

184

帖子

591

积分

版主

Rank: 7Rank: 7Rank: 7

积分
591
发表于 2019-1-7 12:49:38 | 显示全部楼层 |阅读模式
CCTV-巡查白(全4集)/720P高清



    《巡查白》,由中央纪委宣扬部、中央巡查办、中央电视台结合建造的4集电视专题片。专题片回响反映了党的十八大以来,以习近平同志为核心的党中央把周全从严治党纳进“四个周全”计谋布局,把巡查作为党内监视的┞方略性制度安放,僵持党内监视和群众监视相连系,付与巡查制度新的活气,有用破解自我监视的困难,索求出一条自我净化、自我完美、自我刷新、自我进步的有用路子。
    该片于2017年9月7日至11日在中央电视台综合频道每晚8点首播。

中文名称:巡查白
国度/区域:中国
类型:专题片
建造公司:中央纪委宣扬部、中央巡查办、中央电视台
播出频道:中央电视台综合频道
播出时刻:9月7日至11日每晚8点
在线播放平台:央视网
每集长度:约45分钟
播出状况:已播完


CCTV-巡视利剑(全4集)/720P高清


引用


D:\720pp\CCTV1.巡查白.Complete.HDTV.720p.x264-songor\巡查白.Ep04.HDTV.720p.x264-songor.mkv
  General
     Complete name : D:\720pp\CCTV1.巡查白.Complete.HDTV.720p.x264-songor\巡查白.Ep04.HDTV.720p.x264-songor.mkv
     Format : Matroska
     File size : 1.80 GiB
     Duration : 51mn 59s
     Overall bit rate : 4 950 Kbps
     Encoded date : UTC 2017-09-12 02:04:58
     Writing application : mkvmerge v6.3.0 ('You can't stop me!') built on Jun 28 2013 20:09:41
     Writing library : libebml v1.3.0 + libmatroska v1.4.0
  Video #1
     ID : 1
     Format : AVC
     Format/Info : Advanced Video Codec
     Format profile : High@L4.1
     Format settings, CABAC : Yes
     Format settings, ReFrames : 5 frames
     Muxing mode : Container profile=Unknown@4.1
     Codec ID : V_MPEG4/ISO/AVC
     Duration : 51mn 59s
     Bit rate : 4 404 Kbps
     Nominal bit rate : 4 500 Kbps
     Width : 1 280 pixels
     Height : 720 pixels
     Display aspect ratio : 16:9
     Frame rate : 25.000 fps
     Resolution : 8 bits
     Colorimetry : 4:2:0
     Scan type : Progressive
     Bits/(Pixel*Frame) : 0.191
     Stream size : 1.60 GiB (89%)
     Writing library : x264 core 133 r2334 a3ac64b
     Encoding settings : cabac=1 / ref=5 / deblock=1:-3:-3 / analyse=0x3:0x113 / me=umh / subme=7 / psy=1 / psy_rd=1.00:0.00 / mixed_ref=1 / me_range=16 / chroma_me=1 / trellis=1 / 8x8dct=1 / cqm=0 / deadzone=21,11 / fast_pskip=0 / chroma_qp_offset=-2 / threads=12 / lookahead_threads=2 / sliced_threads=0 / nr=0 / decimate=1 / interlaced=0 / bluray_compat=0 / constrained_intra=0 / bframes=3 / b_pyramid=2 / b_adapt=2 / b_bias=0 / direct=3 / weightb=1 / open_gop=0 / weightp=2 / keyint=250 / keyint_min=25 / scenecut=40 / intra_refresh=0 / rc_lookahead=50 / rc=2pass / mbtree=1 / bitrate=4500 / ratetol=1.0 / qcomp=0.70 / qpmin=0 / qpmax=69 / qpstep=4 / cplxblur=20.0 / qblur=0.5 / vbv_maxrate=14000 / vbv_bufsize=14000 / nal_hrd=none / ip_ratio=1.40 / aq=1:1.00
  Audio #2

     ID : 2
     Format : AC-3
     Format/Info : Audio Coding 3
     Codec ID : A_AC3
     Duration : 51mn 59s
     Bit rate mode : Constant
     Bit rate : 448 Kbps
     Channel(s) : 6 channels
     Channel positions : Front: L C R, Surround: L R, LFE
     Sampling rate : 48.0 KHz
     Stream size : 167 MiB (9%)

下载地址:(视频内嵌中字..回答可见..下载完成后把影片文件名后缀改成.mkv或直接把文件拖进播放器即可)




游客,如果您要查看本帖隐藏内容请回复

回复

使用道具 举报

0

主题

75

帖子

150

积分

注册会员

Rank: 2

积分
150
发表于 2019-1-7 12:49:38 | 显示全部楼层
好,很好,非常好!
回复

使用道具 举报

0

主题

66

帖子

132

积分

注册会员

Rank: 2

积分
132
发表于 2019-1-9 19:31:10 | 显示全部楼层
1v1飘过。。。。。
回复

使用道具 举报

0

主题

82

帖子

164

积分

注册会员

Rank: 2

积分
164
发表于 2019-1-12 19:10:58 来自手机 | 显示全部楼层
占坑编辑ing
回复

使用道具 举报

0

主题

74

帖子

148

积分

注册会员

Rank: 2

积分
148
发表于 2019-1-15 10:24:03 | 显示全部楼层
一直在看
回复

使用道具 举报

0

主题

70

帖子

140

积分

注册会员

Rank: 2

积分
140
发表于 2019-1-16 21:49:27 | 显示全部楼层
高手云集 果断围观
回复

使用道具 举报

0

主题

82

帖子

164

积分

注册会员

Rank: 2

积分
164
发表于 2019-1-17 08:23:18 | 显示全部楼层
顶起顶起顶起
回复

使用道具 举报

0

主题

79

帖子

158

积分

注册会员

Rank: 2

积分
158
发表于 2019-1-17 18:39:09 | 显示全部楼层
元芳你怎么看?
回复

使用道具 举报

0

主题

65

帖子

130

积分

注册会员

Rank: 2

积分
130
发表于 2019-1-21 23:26:05 | 显示全部楼层
啊啊啊啊啊啊啊啊啊啊啊
回复

使用道具 举报

0

主题

73

帖子

146

积分

注册会员

Rank: 2

积分
146
发表于 2019-1-22 11:51:13 | 显示全部楼层
我也是坐沙发的
回复

使用道具 举报

快速回复
您需要登录后才可以回帖 登录 | 立即注册

本版积分规则

Archiver|小黑屋|纪录片从业者-纪录片部落-电影拍摄-导演知识-电影学习 |网站地图

GMT+8, 2019-2-20 06:05 , Processed in 0.089157 second(s), 24 queries .

© 2018-2020 www.xitongle.com

快速回复 返回顶部 返回列表